魔爪论坛

 找回密码
 立即注册
查看: 3123|回复: 95

[1080P] [小妇人]Little.Women.1994.BluRay.1080p.x264.DTS-CMCT[国英双语/中英字幕/11.6G]

  [复制链接]

签到天数: 3 天

[LV.2]偶尔看看I

1038

主题

1087

帖子

677

积分

管理员

Rank: 9Rank: 9Rank: 9

积分
677
发表于 2020-4-24 22:51:14 | 显示全部楼层 |阅读模式
片 源:Little.Women.1994.1080P.Blu-Ray.AVC.DTS.HD.5.1-weiwei2001@CHDBits
字幕源:英文SDH字幕(原盘)/zjattj@zimuku.la(R3官方译本)
国 配:央视国配素材由"一凡"发布于BBS,"的羔羊"调制DD2.0-192Kbps,本片引进时做了删减,国配缺失部分使用原声替代,匹配BD;
字 幕:1. 双语字幕由景瑞@CMCT合成并精校,中文参照May@伪射手,补充SDH字幕缺失部分对白双语;
    2. 央视国配字幕由reky04@CMCT完成听录校对,匹配对白,国配缺失部分使用原声双语字幕替代;
在此对各位深表感谢!


◎译  名 小妇人 / 新小妇人
◎片  名 Little Women
◎年  代 1994
◎产  地 美国 / 加拿大
◎类  别 剧情 / 爱情 / 家庭
◎语  言 英语 / 德语 / 法语
◎上映日期 1994-12-21
◎IMDb评分 7.3/10 from 45359 users
◎IMDb链接 https://www.imdb.com/title/tt0110367
◎豆瓣评分 8.2/10 from 18084 users
◎魔爪论坛   http://www.91mz.cc
◎片  长 115 分钟
◎导  演 吉莉安·阿姆斯特朗 Gillian Armstrong
◎编  剧 路易莎·梅·奥尔科特 Louisa May Alcott / 罗宾·史威考德 Robin Swicord
◎主  演 薇诺娜·瑞德 Winona Ryder
      加布里埃尔·伯恩 Gabriel Byrne
      翠尼·阿瓦拉多 Trini Alvarado
      萨曼莎·玛西丝 Samantha Mathis
      克斯汀·邓斯特 Kirsten Dunst
      克莱尔·丹妮丝 Claire Danes
      克里斯蒂安·贝尔 Christian Bale
      埃里克·斯托尔兹 Eric Stoltz
      约翰·内威尔 John Neville
      玛丽·威克斯 Mary Wickes
      苏珊·萨兰登 Susan Sarandon
      Florence Paterson
      罗宾科里斯 Robin Collins
      柯丽·克拉克 Corrie Clark
      瑞贝卡·图兰 Rebecca Toolan
      莎拉·斯特兰奇 Sarah Strange
      克里斯汀·李帕 Christine Lippa
      艾伦·罗伯逊 Alan Robertson
      卡梅伦莱伯恩 Cameron Labine
      马修·沃克 Matthew Walker
      玛里琳·诺瑞 Marilyn Norry
      安德莉亚·利布曼 Andrea Libman
      泰根·摩斯 Tegan Moss
      贝薇莉·埃利奥特 Beverley Elliott
      杰伊·布拉泽奥 Jay Brazeau
      迪米特里·格里特萨斯 Demetri Goritsas
      凯特·罗宾斯 Kate Robbins
      唐纳尔·罗格 Donal Logue
      斯科特·贝利斯 Scott Bellis
      埃里克·布鲁诺·伯格曼 Eric Bruno Borgman
      Dale Resteghini
      杰瑞罗宾斯 Jerry Robbins

◎简  介
  南北战争时期,马萨诸塞州的康科德城。
  马其家是镇上一个普通家庭,父亲在外打仗,留下坚强的妻子和四个女儿。Meg十六岁,俨然一个窈窕淑女。Jo(薇瑞娜?赖德)十五岁,喜爱写作,发表的文章为家里付清了各种费用。Beth温柔乖巧,羞怯地爱好着钢琴。Amy最小也最漂亮,也有点 爱出风头。马其太太的坚强给了四个女儿力量,她们时常接济贫穷的居民,圣诞节也不例外。当她们的邻居劳伦斯先生听说此事后便准备了丰富的晚餐给这群可爱的小妇人们。
  而劳伦斯的孙子劳里也跟Jo成为了好朋友,成为了马其家的一员。他的家庭教师约翰爱上了Meg,Beth在照顾生病的邻居孩子时感染上了猩红热,在最危险的时候,去华盛顿照顾受伤父亲的妈妈回来了,把父亲也带回来,他们一家团聚。
  四年后,Meg和约翰终于喜结连理,大学毕业的劳里也向Jo求婚,却惨遭拒绝,打击太大的他愤而离家,辗转欧洲,偶遇在欧洲旅游的Amy,此时的Amy早已改掉了虚荣的毛病,她对劳里的关切打动了劳里的心,他们决定结婚。然而此时却传来了Beth病危的消息,还没赶到家Beth已经离开了大家。
  心灰意冷的Jo去了纽约,认识了她生命中的真命天子。


◎获奖情况
  第67届奥斯卡金像奖(1995)
  最佳女主角(提名) 薇诺娜·瑞德
  最佳服装设计(提名) 柯琳·阿特伍德
  最佳原创配乐(提名) 托马斯·纽曼

  第48届英国电影学院奖(1995)
  电影奖 最佳服装设计(提名) 柯琳·阿特伍德


General
Unique ID                                : 218046890438596752602623469424906824624 (0xA40A4DB5F3C96004AB5A8B175B0B6BB0)
Complete name                            : D:\MrFish\Encoded\小妇人.1994.1080p.国英双语.中英字幕£CMCT小鱼\[小妇人].Little.Women.1994.BluRay.1080p.x264.DTS.2Audios-CMCT.mkv
Format                                   : Matroska
Format version                           : Version 4 / Version 2
File size                                : 11.6 GiB
Duration                                 : 1 h 58 min
Overall bit rate                         : 14.0 Mb/s
Encoded date                             : UTC 2020-04-15 17:40:09
Writing application                      : mkvmerge v7.7.0 ('Six Voices') 32bit built on Feb 28 2015 23:23:00
Writing library                          : libebml v1.3.1 + libmatroska v1.4.2
Attachments                              : 黑体.ttf / 文泉驿微米黑.ttf

Video
ID                                       : 1
Format                                   : AVC
Format/Info                              : Advanced Video Codec
Format profile                           : High@L4.1
Format settings                          : CABAC / 4 Ref Frames
Format settings, CABAC                   : Yes
Format settings, RefFrames               : 4 frames
Codec ID                                 : V_MPEG4/ISO/AVC
Duration                                 : 1 h 58 min
Bit rate                                 : 12.3 Mb/s
Width                                    : 1 920 pixels
Height                                   : 1 036 pixels
Display aspect ratio                     : 1.85:1
Frame rate mode                          : Constant
Frame rate                               : 23.976 (24000/1001) FPS
Color space                              : YUV
Chroma subsampling                       : 4:2:0
Bit depth                                : 8 bits
Scan type                                : Progressive
Bits/(Pixel*Frame)                       : 0.258
Stream size                              : 10.2 GiB (88%)
Title                                    : Encoded.by.小鱼@CMCT
Writing library                          : x264 core 146 r2538 121396c
Encoding settings                        : cabac=1 / ref=4 / deblock=1:-3:-3 / analyse=0x3:0x133 / me=umh / subme=11 / psy=1 / psy_rd=1.00:0.00 / mixed_ref=1 / me_range=48 / chroma_me=1 / trellis=2 / 8x8dct=1 / cqm=0 / deadzone=21,11 / fast_pskip=0 / chroma_qp_offset=-2 / threads=16 / lookahead_threads=1 / sliced_threads=0 / nr=0 / decimate=1 / interlaced=0 / bluray_compat=0 / constrained_intra=0 / bframes=6 / b_pyramid=2 / b_adapt=2 / b_bias=0 / direct=1 / weightb=1 / open_gop=0 / weightp=2 / keyint=240 / keyint_min=22 / scenecut=40 / intra_refresh=0 / rc_lookahead=60 / rc=2pass / mbtree=1 / bitrate=12295 / ratetol=1.0 / qcomp=0.65 / qpmin=0 / qpmax=69 / qpstep=4 / cplxblur=20.0 / qblur=0.5 / vbv_maxrate=50000 / vbv_bufsize=62500 / nal_hrd=none / filler=0 / ip_ratio=1.40 / aq=1:1.00
Default                                  : Yes
Forced                                   : No

Audio #1
ID                                       : 2
Format                                   : DTS
Format/Info                              : Digital Theater Systems
Mode                                     : 16
Format settings, Endianness              : Big
Codec ID                                 : A_DTS
Duration                                 : 1 h 58 min
Bit rate mode                            : Constant
Bit rate                                 : 1 509 kb/s
Channel(s)                               : 6 channels
Channel positions                        : Front: L C R, Side: L R, LFE
Sampling rate                            : 48.0 kHz
Frame rate                               : 93.750 FPS (512 SPF)
Bit depth                                : 24 bits
Compression mode                         : Lossy
Stream size                              : 1.25 GiB (11%)
Title                                    : 英语
Language                                 : English
Default                                  : Yes
Forced                                   : No

Audio #2
ID                                       : 3
Format                                   : AC-3
Format/Info                              : Audio Coding 3
Format settings, Endianness              : Big
Codec ID                                 : A_AC3
Duration                                 : 1 h 58 min
Bit rate mode                            : Constant
Bit rate                                 : 192 kb/s
Channel(s)                               : 2 channels
Channel positions                        : Front: L R
Sampling rate                            : 48.0 kHz
Frame rate                               : 31.250 FPS (1536 SPF)
Bit depth                                : 16 bits
Compression mode                         : Lossy
Stream size                              : 163 MiB (1%)
Title                                    : 央视国配
Language                                 : Chinese
Service kind                             : Complete Main
Default                                  : No
Forced                                   : No

Text #1
ID                                       : 4
Format                                   : ASS
Codec ID                                 : S_TEXT/ASS
Codec ID/Info                            : Advanced Sub Station Alpha
Duration                                 : 1 h 54 min
Bit rate                                 : 186 b/s
Count of elements                        : 1421
Compression mode                         : Lossless
Stream size                              : 156 KiB (0%)
Title                                    : 中上英下(简)
Language                                 : Chinese
Default                                  : Yes
Forced                                   : No

Text #2
ID                                       : 5
Format                                   : ASS
Codec ID                                 : S_TEXT/ASS
Codec ID/Info                            : Advanced Sub Station Alpha
Duration                                 : 1 h 54 min
Bit rate                                 : 186 b/s
Count of elements                        : 1421
Compression mode                         : Lossless
Stream size                              : 156 KiB (0%)
Title                                    : 中上英下(繁)
Language                                 : Chinese
Default                                  : No
Forced                                   : No

Text #3
ID                                       : 6
Format                                   : ASS
Codec ID                                 : S_TEXT/ASS
Codec ID/Info                            : Advanced Sub Station Alpha
Duration                                 : 1 h 54 min
Bit rate                                 : 107 b/s
Count of elements                        : 1510
Compression mode                         : Lossless
Stream size                              : 90.1 KiB (0%)
Title                                    : 国配简中
Language                                 : Chinese
Default                                  : No
Forced                                   : No

Text #4
ID                                       : 7
Format                                   : ASS
Codec ID                                 : S_TEXT/ASS
Codec ID/Info                            : Advanced Sub Station Alpha
Duration                                 : 1 h 54 min
Bit rate                                 : 107 b/s
Count of elements                        : 1510
Compression mode                         : Lossless
Stream size                              : 90.1 KiB (0%)
Title                                    : 国配繁中
Language                                 : Chinese
Default                                  : No
Forced                                   : No




















本帖子中包含更多资源

您需要 登录 才可以下载或查看,没有帐号?立即注册

x
魔爪论坛http://www.91mz.cc,一个有情怀的电影交流论坛
回复

使用道具 举报

签到天数: 199 天

[LV.7]常住居民III

0

主题

422

帖子

5

积分

新兵

Rank: 1

积分
5
发表于 2020-4-24 22:58:17 | 显示全部楼层
感谢分享94版本的小妇人~~
魔爪论坛http://www.91mz.cc,一个有情怀的电影交流论坛
回复

使用道具 举报

签到天数: 51 天

[LV.5]常住居民I

0

主题

2030

帖子

21

积分

新兵

Rank: 1

积分
21
发表于 2020-4-24 23:00:42 | 显示全部楼层
感谢分享感谢分享感谢分享
魔爪论坛http://www.91mz.cc,一个有情怀的电影交流论坛
回复

使用道具 举报

签到天数: 49 天

[LV.5]常住居民I

5

主题

321

帖子

323

积分

永久VIP

Rank: 18Rank: 18Rank: 18Rank: 18Rank: 18

积分
323
QQ
发表于 2020-4-24 23:03:55 | 显示全部楼层
难怪,我眼拙了,原来是94版的~好像分享!
魔爪论坛http://www.91mz.cc,一个有情怀的电影交流论坛
回复

使用道具 举报

签到天数: 257 天

[LV.8]以坛为家I

0

主题

1710

帖子

318

积分

永久VIP

Rank: 18Rank: 18Rank: 18Rank: 18Rank: 18

积分
318
发表于 2020-4-24 23:10:01 | 显示全部楼层
高分电影,感谢分享
魔爪论坛http://www.91mz.cc,一个有情怀的电影交流论坛
回复

使用道具 举报

该用户从未签到

0

主题

324

帖子

12

积分

新兵

Rank: 1

积分
12
发表于 2020-4-24 23:22:39 | 显示全部楼层
感谢分享感谢分享感谢分享
魔爪论坛http://www.91mz.cc,一个有情怀的电影交流论坛
回复

使用道具 举报

签到天数: 355 天

[LV.8]以坛为家I

0

主题

5141

帖子

57

积分

列兵

Rank: 2

积分
57
发表于 2020-4-24 23:27:23 | 显示全部楼层
贝尔真年轻
魔爪论坛http://www.91mz.cc,一个有情怀的电影交流论坛
回复

使用道具 举报

签到天数: 192 天

[LV.7]常住居民III

0

主题

1093

帖子

11

积分

新兵

Rank: 1

积分
11
发表于 2020-4-24 23:39:43 | 显示全部楼层
感谢分享!不错!
魔爪论坛http://www.91mz.cc,一个有情怀的电影交流论坛
回复

使用道具 举报

签到天数: 344 天

[LV.8]以坛为家I

0

主题

2209

帖子

23

积分

新兵

Rank: 1

积分
23
发表于 2020-4-25 00:16:36 | 显示全部楼层
谢谢楼主分享
魔爪论坛http://www.91mz.cc,一个有情怀的电影交流论坛
回复

使用道具 举报

签到天数: 235 天

[LV.7]常住居民III

0

主题

1512

帖子

316

积分

永久VIP

Rank: 18Rank: 18Rank: 18Rank: 18Rank: 18

积分
316
发表于 2020-4-25 00:29:27 | 显示全部楼层
感谢楼主分享
魔爪论坛http://www.91mz.cc,一个有情怀的电影交流论坛
回复

使用道具 举报

您需要登录后才可以回帖 登录 | 立即注册

本版积分规则

QQ|Archiver|手机版|小黑屋|魔爪论坛

GMT+8, 2021-3-3 06:32 , Processed in 0.250000 second(s), 30 queries , Gzip On.

Powered by Discuz! X3.4

Copyright © 2001-2020, Tencent Cloud.

快速回复 返回顶部 返回列表