魔爪论坛

 找回密码
 立即注册
查看: 2891|回复: 100

[720P] [汉娜姐妹(英国箭影版)]1986.UK.BluRay.720p.x264.FLAC-CMCT[国英双语/中英字幕/3.8G]

  [复制链接]

该用户从未签到

1059

主题

1062

帖子

706

积分

管理员

Rank: 9Rank: 9Rank: 9

积分
706
发表于 2020-4-8 12:49:39 | 显示全部楼层 |阅读模式

◎译  名:  汉娜姐妹 / 姊妹情深
◎片  名:  Hannah and Her Sisters / Hannah y sus hermanas  
◎年  代:  1986
◎国  家:  美国
◎类  别:  剧情 / 喜剧 / 爱情
◎语  言:  英语
◎字  幕:  英文
◎上映日期: 1986-02-07
◎IMDB评分: 8.0/10 from 55,540 users  
◎IMDB链接: http://www.imdb.com/title/tt0091167/
◎豆瓣评分:  8.1/10 from 5,449 users
◎魔爪论坛   http://www.91mz.cc
◎片  长:  107 Min
◎导  演:  伍迪·艾伦 Woody Allen
◎编  剧:  伍迪·艾伦 Woody Allen
◎主  演:  伍迪·艾伦 Woody Allen
                米亚·法罗 Mia Faro
                凯丽·费雪 Kerry Fischer
                芭芭拉·赫希 Barbara Hirsch
                迈克尔·凯恩 Michael Kane


◎简  介
  在一个演员家庭中,大姐汉娜(米亚·法罗 Mia Farrow 饰)的丈夫——经济人埃利奥特(迈克尔·凯恩 Michael Caine 饰)正为小姨子莉(芭芭拉·赫希 Barbara Hershey 饰)神魂颠倒。二姐霍莉(黛安娜·维斯特 Dianne Wiest 饰)戒掉了毒品,如今为经济拮据苦恼正考虑赚钱的生意,而汉娜的前夫——电视台编导米基(伍迪·艾伦 Woody Allen 饰)终日幻觉自己的了脑肿瘤,四处求医痛苦不堪。小妹莉与孤僻的画家情人弗雷德里克(马克斯·冯·西多 Max von Sydow 饰)相处,是后者唯一的倾诉对象。埃利奥特难耐情欲,终于与莉发生了关系,霍莉在一连串打击后意外的获得了事业和爱情的拯救……
      围绕在这个演员家庭周围的所有人,经历着情感和事业的重新洗牌。

General
Unique ID                                : 216249815525166157886034218693780001582 (0xA2B03313AA3A2D3295B283D149A7532E)
Complete name                            : C:\Encoders\MrFish\Rip\汉娜姐妹(英国箭影版).1986.720p.国英双语.中英字幕£CMCT小鱼\[汉娜姐妹(英国箭影版)].Hannah.and.Her.Sisters.1986.UK.BluRay.720p.x264.FLAC.2Audios-CMCT.mkv
Format                                   : Matroska
Format version                           : Version 4 / Version 2
File size                                : 3.80 GiB
Duration                                 : 1 h 46 min
Overall bit rate mode                    : Variable
Overall bit rate                         : 5 082 kb/s
Encoded date                             : UTC 2020-04-03 03:01:36
Writing application                      : mkvmerge v7.7.0 ('Six Voices') 32bit built on Feb 28 2015 23:23:00
Writing library                          : libebml v1.3.1 + libmatroska v1.4.2
Attachments                              : tahomabd.ttf / 方正粗黑宋简体.TTF / 方正粗雅宋_GBK.TTF / 方正兰亭中黑_GBK.TTF / 文泉驿微米黑.ttf / 造字工房力黑(非商用)常规体.otf

Video
ID                                       : 1
Format                                   : AVC
Format/Info                              : Advanced Video Codec
Format profile                           : High@L4.1
Format settings                          : CABAC / 9 Ref Frames
Format settings, CABAC                   : Yes
Format settings, RefFrames               : 9 frames
Codec ID                                 : V_MPEG4/ISO/AVC
Duration                                 : 1 h 46 min
Bit rate                                 : 4 430 kb/s
Width                                    : 1 280 pixels
Height                                   : 694 pixels
Display aspect ratio                     : 1.85:1
Frame rate mode                          : Constant
Frame rate                               : 23.976 (24000/1001) FPS
Color space                              : YUV
Chroma subsampling                       : 4:2:0
Bit depth                                : 8 bits
Scan type                                : Progressive
Bits/(Pixel*Frame)                       : 0.208
Stream size                              : 3.31 GiB (87%)
Title                                    : Eocoded.by.小鱼@CMCT
Writing library                          : x264 core 146 r2538 121396c
Encoding settings                        : cabac=1 / ref=9 / deblock=1:-3:-3 / analyse=0x3:0x133 / me=umh / subme=11 / psy=1 / psy_rd=1.00:0.00 / mixed_ref=1 / me_range=48 / chroma_me=1 / trellis=2 / 8x8dct=1 / cqm=0 / deadzone=21,11 / fast_pskip=0 / chroma_qp_offset=-2 / threads=72 / lookahead_threads=5 / sliced_threads=0 / nr=0 / decimate=1 / interlaced=0 / bluray_compat=0 / constrained_intra=0 / bframes=6 / b_pyramid=2 / b_adapt=2 / b_bias=0 / direct=1 / weightb=1 / open_gop=0 / weightp=2 / keyint=240 / keyint_min=22 / scenecut=40 / intra_refresh=0 / rc_lookahead=60 / rc=2pass / mbtree=1 / bitrate=4430 / ratetol=1.0 / qcomp=0.65 / qpmin=0 / qpmax=69 / qpstep=4 / cplxblur=20.0 / qblur=0.5 / vbv_maxrate=50000 / vbv_bufsize=62500 / nal_hrd=none / filler=0 / ip_ratio=1.40 / aq=1:1.00
Default                                  : Yes
Forced                                   : No

Audio #1
ID                                       : 2
Format                                   : FLAC
Format/Info                              : Free Lossless Audio Codec
Codec ID                                 : A_FLAC
Duration                                 : 1 h 46 min
Bit rate mode                            : Variable
Bit rate                                 : 425 kb/s
Channel(s)                               : 2 channels
Channel positions                        : Front: L R
Sampling rate                            : 48.0 kHz
Frame rate                               : 11.719 FPS (4096 SPF)
Bit depth                                : 24 bits
Stream size                              : 325 MiB (8%)
Title                                    : 英语
Writing library                          : libFLAC 1.2.1 (UTC 2007-09-17)
Language                                 : English
Default                                  : Yes
Forced                                   : No

Audio #2
ID                                       : 3
Format                                   : AC-3
Format/Info                              : Audio Coding 3
Format settings, Endianness              : Big
Codec ID                                 : A_AC3
Duration                                 : 1 h 46 min
Bit rate mode                            : Constant
Bit rate                                 : 192 kb/s
Channel(s)                               : 2 channels
Channel positions                        : Front: L R
Sampling rate                            : 48.0 kHz
Frame rate                               : 31.250 FPS (1536 SPF)
Bit depth                                : 16 bits
Compression mode                         : Lossy
Stream size                              : 147 MiB (4%)
Title                                    : 央视国配
Language                                 : Chinese
Service kind                             : Complete Main
Default                                  : No
Forced                                   : No

Text #1
ID                                       : 4
Format                                   : ASS
Codec ID                                 : S_TEXT/ASS
Codec ID/Info                            : Advanced Sub Station Alpha
Duration                                 : 1 h 42 min
Bit rate                                 : 336 b/s
Count of elements                        : 3396
Compression mode                         : Lossless
Stream size                              : 254 KiB (0%)
Title                                    : 中英字幕
Language                                 : Chinese
Default                                  : Yes
Forced                                   : No

Text #2
ID                                       : 5
Format                                   : ASS
Codec ID                                 : S_TEXT/ASS
Codec ID/Info                            : Advanced Sub Station Alpha
Duration                                 : 1 h 42 min
Bit rate                                 : 160 b/s
Count of elements                        : 1777
Compression mode                         : Lossless
Stream size                              : 121 KiB (0%)
Title                                    : 国配简中
Language                                 : Chinese
Default                                  : No
Forced                                   : No






本帖子中包含更多资源

您需要 登录 才可以下载或查看,没有帐号?立即注册

x
魔爪论坛http://www.91mz.cc,一个有情怀的电影交流论坛
回复

使用道具 举报

签到天数: 355 天

[LV.8]以坛为家I

0

主题

5141

帖子

57

积分

列兵

Rank: 2

积分
57
发表于 2020-4-8 13:03:10 | 显示全部楼层
伍迪·艾伦自导自演
魔爪论坛http://www.91mz.cc,一个有情怀的电影交流论坛
回复

使用道具 举报

签到天数: 235 天

[LV.7]常住居民III

0

主题

1512

帖子

316

积分

永久VIP

Rank: 18Rank: 18Rank: 18Rank: 18Rank: 18

积分
316
发表于 2020-4-8 13:11:27 | 显示全部楼层
感谢楼主分享
魔爪论坛http://www.91mz.cc,一个有情怀的电影交流论坛
回复

使用道具 举报

签到天数: 190 天

[LV.7]常住居民III

0

主题

610

帖子

307

积分

永久VIP

Rank: 18Rank: 18Rank: 18Rank: 18Rank: 18

积分
307
发表于 2020-4-8 13:25:37 | 显示全部楼层
谢谢分享经典电影
魔爪论坛http://www.91mz.cc,一个有情怀的电影交流论坛
回复

使用道具 举报

签到天数: 64 天

[LV.6]常住居民II

0

主题

506

帖子

64

积分

列兵

Rank: 2

积分
64
发表于 2020-4-8 13:25:48 | 显示全部楼层
这部影片比较老了
魔爪论坛http://www.91mz.cc,一个有情怀的电影交流论坛
回复

使用道具 举报

签到天数: 29 天

[LV.4]偶尔看看III

0

主题

207

帖子

18

积分

新兵

Rank: 1

积分
18
发表于 2020-4-8 13:27:05 | 显示全部楼层
感谢楼主分享
魔爪论坛http://www.91mz.cc,一个有情怀的电影交流论坛
回复

使用道具 举报

签到天数: 257 天

[LV.8]以坛为家I

0

主题

1710

帖子

318

积分

永久VIP

Rank: 18Rank: 18Rank: 18Rank: 18Rank: 18

积分
318
发表于 2020-4-8 13:41:30 | 显示全部楼层
感谢分享经典老片
魔爪论坛http://www.91mz.cc,一个有情怀的电影交流论坛
回复

使用道具 举报

签到天数: 181 天

[LV.7]常住居民III

0

主题

476

帖子

5

积分

新兵

Rank: 1

积分
5
发表于 2020-4-8 13:41:36 | 显示全部楼层
不知道怎么,相信伍迪
魔爪论坛http://www.91mz.cc,一个有情怀的电影交流论坛
回复

使用道具 举报

该用户从未签到

0

主题

39

帖子

1

积分

新兵

Rank: 1

积分
1
发表于 2020-4-8 14:04:48 | 显示全部楼层
感谢楼主分享
魔爪论坛http://www.91mz.cc,一个有情怀的电影交流论坛
回复

使用道具 举报

签到天数: 194 天

[LV.7]常住居民III

0

主题

92

帖子

1

积分

新兵

Rank: 1

积分
1
发表于 2020-4-8 14:17:45 | 显示全部楼层
感谢楼主的辛勤劳动
魔爪论坛http://www.91mz.cc,一个有情怀的电影交流论坛
回复

使用道具 举报

您需要登录后才可以回帖 登录 | 立即注册

本版积分规则

QQ|Archiver|手机版|小黑屋|魔爪论坛

GMT+8, 2021-3-3 07:52 , Processed in 0.234375 second(s), 25 queries , Gzip On.

Powered by Discuz! X3.4

Copyright © 2001-2020, Tencent Cloud.

快速回复 返回顶部 返回列表