魔爪论坛

 找回密码
 立即注册
查看: 506|回复: 25

[720P] 结婚证书.License.to.Wed.2007.BluRay.x264.AC3-CnSCG[国英三语/中英字幕/2.78G]

[复制链接]

签到天数: 59 天

[LV.5]常住居民I

46

主题

50

帖子

29

积分

版主

Rank: 7Rank: 7Rank: 7

积分
29
发表于 2021-1-24 12:58:58 | 显示全部楼层 |阅读模式


※※※※※※※ 影片信息 ※※※※※※※

◎译  名 结婚证书
◎片  名 License to Wed
◎年  代 2007
◎国  家 美国
◎类  别 喜剧/爱情
◎语  言 英语/国语
◎字  幕 中英双语字幕
◎IMDB评分 5.1/10 (3,662 votes)
◎IMDB链接 http://www.imdb.com/title/tt0762114/
◎豆瓣评分  6.6/10 5114人评价
◎豆瓣链接  https://movie.douban.com/subject/2045321/
◎片  长 91 MiN
◎导  演 肯·卡皮斯Ken Kwapis
◎主  演 罗宾·威廉斯Robin Williams .....Father Frank
      曼迪·摩尔Mandy Moore .....Sadie Jones
      约翰·卡拉辛斯基John Krasinski .....Ben Murphy
      艾瑞克·克里斯蒂安·奥森Eric Christian Olsen .....Carlisle
      德雷·戴维斯DeRay Davis .....Joel

※※※※※※※ 资料信息 ※※※※※※※

◎简  介 

  对于许多爱得难舍难分的情侣来说,婚姻都是对他们之间爱情坚固程度的一次考验。本·墨菲和赛迪·琼斯的故事就开始于一场充满希望和承诺的恋爱关系,他们经历了所有情侣都会使用的常规步骤:甜蜜的相逢、情不自禁地调情、情投意合地相爱,然后,他们就开始了同居生活……有的时候,你不得不相信,在爱情的道路上走得太顺利的话,其实并不是什么好事,因为过于甜蜜的生活,往往会让在爱中迷失了自我的年轻人们失去警惕的心。
  本和赛迪都认为有必要将两人之间的关系提升至另一个阶段,于是,他们决定厮守终生。就婚礼的筹备问题,从没出现过任何分歧的两人第一次有了小小的意见不合:本希望可以去热带旅行结婚,赛迪却想在圣奥古斯丁家庭教会的祝福下走向圣坛,让看着自己长大的神父弗兰克为婚礼主持,并得到他的祝福……本非常尊重赛迪的信仰和思乡之情,同意了她的提议。然而弗兰克神父却拒绝为他们的婚礼做主持,除非他们能够通过“婚前预备演习”课程的考验。由于听信了弗兰克神父所谓的“简单安全”,本和赛迪都觉得“模拟”婚姻生活未必是件糟糕的事情。不过让他们想象不到的是,这场在弗兰克神父安排下的“结婚演习”以一种蛮横霸道的态度进行着,甚至达到了令人发指的程度,其中不但有古怪的家庭作业,甚至涉及到对个人隐私的侵犯。参加这次“情感训练营”,并没有像本和赛迪预期的那样,让两个人的关系更加紧密,反而成了他们曾经拥有的快乐时光的终结者,这场漫长而痛苦的考验,让本和赛迪开始重新思考,原来“永远幸福地生活在一起”并不像口中说说的那样简单。他们要怎么做,才能最终如愿地踏上圣坛,喜结良缘呢?一句话评论:
就像美国婚姻的成功率只有50%那样,影片也以一种无法弥补的方式随之倒塌,观众不仅会觉得感情上受到了伤害,还会因为愤怒而产生一种被背叛的感觉。——《环球影评》约翰·卡拉辛斯基在影片中证明了自己不仅仅只会做一些办公桌旁的表演(《办公室》),而曼迪·摩尔作为一个真诚的女孩,稍稍挽回了自己在《因为我这么说》中的颓势。——《休斯顿纪实》继去年的《赖家王老五》之后,又一部喜剧工业中的败笔。——Reel网站影片在一片感伤、沉闷中结束,委婉一些的说法就是,故事实在是没什么意思。——《明尼阿波利斯明星论坛》除了那对被用在“婚前预备演习”课程中的双胞胎机械娃娃还算比较有趣,影片其余的部分就差强人意了。——《娱乐周刊》

幕后制作:

  【结婚证书】
  社会上持续上涨的离婚率,让人禁不住怀疑爱情的含金量……现在各种职位都需要考取资格认证书,那么结婚呢?双方的当事人是不是也应该经历一系列培训,然后持证上岗呢?导演肯·卡皮斯说:“为了考取驾驶证,你需要几个小时、几个小时地待在教室里,接受老师的指导,考试合格获得学员的许可证之后,才能接受实践的开车练习。相比较而言,得到一纸结婚证明,似乎就简单多了,在不违背任何人意愿的情况下,新郎新娘需要做的,似乎就是在法庭上露个脸--这使得他们将更多的时间都花在了‘真正重要的事情’上,例如寻找合适举行婚礼的场所、最优秀的摄影师、最新潮的DJ,诸如此类。只要有婚宴蛋糕吃,又有谁会在乎眼前的这一对新人很可能一年后就会以离婚结束这段关系呢?”


※※※※※※※ 参数信息 ※※※※※※※

F:自压[结婚证书(国英三语)]License.to.Wed.2007.BluRay.x264.AC3-CnSCG.mkv
  General
     Complete name : F:[结婚证书(国英三语)]License.to.Wed.2007.BluRay.x264.AC3-CnSCG.mkv
     Format : Matroska
     File size : 2.78 GiB
     Duration : 1h 31mn
     Overall bit rate : 4 070 Kbps
     Encoded date : UTC 2010-09-07 12:44:19
     Writing application : mkvmerge v3.4.0 ('Rapunzel') 编译于 May 15 2010 09:38:20
     Writing library : libebml v0.8.0 + libmatroska v0.9.0
  Video #1
     ID : 1
     Format : AVC
     Format/Info : Advanced Video Codec
     Format profile : High@L3.1
     Format settings, CABAC : Yes
     Format settings, ReFrames : 4 frames
     Muxing mode : Container profile=Unknown@3.1
     Codec ID : V_MPEG4/ISO/AVC
     Duration : 1h 31mn
     Bit rate : 3 093 Kbps
     Nominal bit rate : 3 172 Kbps
     Width : 1 280 pixels
     Height : 720 pixels
     Display aspect ratio : 16:9
     Frame rate : 23.976 fps
     Resolution : 8 bits
     Colorimetry : 4:2:0
     Scan type : Progressive
     Bits/(Pixel*Frame) : 0.140
     Stream size : 1.97 GiB (70%)
     Writing library : x264 core 98 r1649 c54c47d
     Encoding settings : cabac=1 / ref=3 / deblock=1:0:0 / analyse=0x3:0x113 / me=hex / subme=7 / psy=1 / psy_rd=1.00:0.00 / mixed_ref=1 / me_range=16 / chroma_me=1 / trellis=1 / 8x8dct=1 / cqm=0 / deadzone=21,11 / fast_pskip=1 / chroma_qp_offset=-2 / threads=3 / sliced_threads=0 / nr=0 / decimate=1 / interlaced=0 / constrained_intra=0 / bframes=3 / b_pyramid=2 / b_adapt=1 / b_bias=0 / direct=1 / weightb=1 / weightp=2 / keyint=250 / keyint_min=25 / scenecut=40 / intra_refresh=0 / rc_lookahead=40 / rc=2pass / mbtree=1 / bitrate=3172 / ratetol=1.0 / qcomp=0.60 / qpmin=10 / qpmax=51 / qpstep=4 / cplxblur=20.0 / qblur=0.5 / ip_ratio=1.40 / aq=1:1.00
     Language : English
  Audio #1
     ID : 2
     Format : AC-3
     Format/Info : Audio Coding 3
     Codec ID : A_AC3
     Duration : 1h 31mn
     Bit rate mode : Constant
     Bit rate : 448 Kbps
     Channel(s) : 6 channels
     Channel positions : Front: L C R, Surround: L R, LFE
     Sampling rate : 48.0 KHz
     Stream size : 293 MiB (10%)
     Title : 六区国语
     Language : Chinese
  Audio #2
     ID : 3
     Format : AC-3
     Format/Info : Audio Coding 3
     Codec ID : A_AC3
     Duration : 1h 31mn
     Bit rate mode : Constant
     Bit rate : 448 Kbps
     Channel(s) : 2 channels
     Channel positions : Front: L C R, Surround: L R, LFE
     Sampling rate : 48.0 KHz
     Stream size : 293 MiB (10%)
     Title : 东影上译国语
     Language : Chinese
Audio #3
     ID : 4
     Format : AC-3
     Format/Info : Audio Coding 3
     Codec ID : A_AC3
     Duration : 1h 31mn
     Bit rate mode : Constant
     Bit rate : 448 Kbps
     Channel(s) : 6 channels
     Channel positions : Front: L C R, Surround: L R, LFE
     Sampling rate : 48.0 KHz
     Stream size : 293 MiB (10%)
     Title : 英语
     Language : English

  Text #1
     ID : 5
     Format : ASS
     Codec ID : S_TEXT/ASS
     Codec ID/Info : Advanced Sub Station Alpha
     Title : 中上英下
     Language : Chinese
  Text #2
     ID : 6
     Format : ASS
     Codec ID : S_TEXT/ASS
     Codec ID/Info : Advanced Sub Station Alpha
     Title : 英上中下
     Language : English
  Text #3
     ID : 7
      Format : ASS
     Codec ID : S_TEXT/ASS
     Codec ID/Info : Advanced Sub Station Alpha
     Title : 中文
     Language : Chinese
  Text #4
     ID : 8
     Format : ASS
     Codec ID : S_TEXT/ASS
     Codec ID/Info : Advanced Sub Station Alpha
     Title : English
     Language : English

※※※※※※※ 截图信息 ※※※※※※※


百度网盘链接:https://pan.baidu.com/s/15wTxkVJJcuSppKWi8TVUYw


本帖子中包含更多资源

您需要 登录 才可以下载或查看,没有帐号?立即注册

x
魔爪论坛http://www.91mz.cc,一个有情怀的电影交流论坛
回复

使用道具 举报

签到天数: 258 天

[LV.8]以坛为家I

0

主题

555

帖子

6

积分

新兵

Rank: 1

积分
6
发表于 2021-1-24 15:08:24 | 显示全部楼层
楼主发贴辛苦了,谢谢
魔爪论坛http://www.91mz.cc,一个有情怀的电影交流论坛
回复

使用道具 举报

该用户从未签到

0

主题

290

帖子

3

积分

新兵

Rank: 1

积分
3
发表于 2021-1-24 15:11:52 | 显示全部楼层
感谢帝国  干燥分享  
魔爪论坛http://www.91mz.cc,一个有情怀的电影交流论坛
回复

使用道具 举报

该用户从未签到

0

主题

2837

帖子

29

积分

新兵

Rank: 1

积分
29
发表于 2021-1-24 17:39:25 | 显示全部楼层
感谢分享结婚证书
魔爪论坛http://www.91mz.cc,一个有情怀的电影交流论坛
回复

使用道具 举报

签到天数: 64 天

[LV.6]常住居民II

0

主题

404

帖子

5

积分

新兵

Rank: 1

积分
5
发表于 2021-1-25 03:58:45 | 显示全部楼层
谢谢LZ分享!
魔爪论坛http://www.91mz.cc,一个有情怀的电影交流论坛
回复

使用道具 举报

签到天数: 151 天

[LV.7]常住居民III

0

主题

348

帖子

4

积分

新兵

Rank: 1

积分
4
发表于 2021-1-25 04:29:15 | 显示全部楼层
谢谢分享经典影片
魔爪论坛http://www.91mz.cc,一个有情怀的电影交流论坛
回复

使用道具 举报

签到天数: 283 天

[LV.8]以坛为家I

0

主题

200

帖子

3

积分

新兵

Rank: 1

积分
3
发表于 2021-1-25 21:21:17 | 显示全部楼层
谢谢楼主分享
魔爪论坛http://www.91mz.cc,一个有情怀的电影交流论坛
回复

使用道具 举报

签到天数: 124 天

[LV.7]常住居民III

0

主题

164

帖子

7

积分

新兵

Rank: 1

积分
7
发表于 2021-1-26 15:54:52 | 显示全部楼层
楼主辛苦 感谢分享
魔爪论坛http://www.91mz.cc,一个有情怀的电影交流论坛
回复

使用道具 举报

签到天数: 1 天

[LV.1]初来乍到

0

主题

770

帖子

8

积分

新兵

Rank: 1

积分
8
发表于 2021-1-27 17:06:38 | 显示全部楼层
推荐一下电影!
魔爪论坛http://www.91mz.cc,一个有情怀的电影交流论坛
回复

使用道具 举报

签到天数: 88 天

[LV.6]常住居民II

0

主题

783

帖子

8

积分

新兵

Rank: 1

积分
8
发表于 2021-1-30 19:30:51 | 显示全部楼层
非常温馨的片子!~
魔爪论坛http://www.91mz.cc,一个有情怀的电影交流论坛
回复

使用道具 举报

您需要登录后才可以回帖 登录 | 立即注册

本版积分规则

QQ|Archiver|手机版|小黑屋|魔爪论坛

GMT+8, 2021-3-8 04:53 , Processed in 0.265625 second(s), 24 queries , Gzip On.

Powered by Discuz! X3.4

Copyright © 2001-2020, Tencent Cloud.

快速回复 返回顶部 返回列表