魔爪论坛

 找回密码
 立即注册
查看: 576|回复: 91

[1080P] [东方秃鹰(英版2K修复版)]1987.GBR.BluRay.1080p.x264.DTS-CMCT[国粤双语中字/9.4G]

  [复制链接]

签到天数: 2 天

[LV.1]初来乍到

435

主题

467

帖子

2194

积分

管理员

Rank: 9Rank: 9Rank: 9

积分
2194
发表于 2020-4-6 23:03:10 | 显示全部楼层 |阅读模式

◎译  名 东方秃鹰 / Eastern Condors
◎片  名 |方d
◎年  代 1987
◎产  地 香港
◎类  别 剧情 / 动作 / 战争
◎语  言 粤语
◎上映日期 1987-07-09(香港)
◎IMDb评分  7.3/10 from 1787 users
◎魔爪论坛   http://www.91mz.cc
◎豆瓣评分 7.4/10 from 4498 users
◎豆瓣链接 https://movie.douban.com/subject/1306396/
◎片  长 98分钟
◎导  演 洪金宝 Sammo Hung Kam-Bo
◎编  剧 黄炳耀 Barry Wong
◎主  演 洪金宝 Sammo Hung Kam-Bo
      元彪 Biao Yuen
      吴汉润 Haing S. Ngor
      高丽虹 Joyce Godenzi
      林正英 Ching-Ying Lam
      秦祥林 Charlie Chin
      张国强 Kwok Keung Cheung
      楼南光 Billy Lau
      袁和平 Woo-ping Yuen
      元奎 Corey Yuen
      元华 Wah Yuen
      夏志珍 Chi Chun Ha
      仓田保昭 Yasuaki Kurata
      招文茵 Man-Yan Chiu
      狄威 Dick Wei
      陈龙 Peter Chan Lung
      周比利 Billy Chow
      田俊 James Tien Chun
      高飞 Phillip Ko
      午马 Wu Ma
      黄锦 Melvin Wong
      苗侨伟 Kiu Wai Miu
      钟发 Fat Chung
      汤镇业 Ken Tong
      莫少聪 Siu Chung Mok
      戴志伟 Chi Wai Tai
      何家劲 Kenny Ho
      潘宏彬
      林国斌 Ben Lam
      尹志强 Chi Keung Wan
      李健生 Chris Lee
      小侯 Hou Hsia
      钱嘉乐 Kar Lok Chin

◎简  介  
  越战硝烟散尽,但是战争的影响并未消失……为了摧毁军队留在越南的大批飞弹,美军挑选了十名包括杀人犯童明辛(洪金宝 饰)、走私犯任人熙(袁和平 饰)等在内的华裔犯人,组成一支特种小队,委托林上校(林正英 饰)领导。同时,特种小队兼负联络滞留越南的美军上校之兄杨龙的使命。此次任务代号为“东方秃鹰”

       在特种小队空降越南之时,任务负责人意外身亡,导致任务取消。幸有三名柬埔寨游击队员(高丽虹等 饰)在当地协助,林上校决定将任务完成,特种小队与杨龙及义子“老鼠杰”(元彪 饰)一行,在越共的层层围剿中,向美军的战时秘密军火库进发……


◎获奖情况  
  第7届香港电影金像奖(1988)
  最佳女配角(提名) 高丽虹
  最佳新演员(提名) 夏志珍
  最佳动作设计(提名)


General
Unique ID                                : 249290043111220703038937085396682315684 (0xBB8B8411240E37D6878B0818F7AC97A4)
Complete name                            : F:\东方秃鹰.1987.2K.Remastered.GBR.1080p.国粤双语.简繁中字£CMCT轻语\[东方秃鹰].Eastern.Condors.1987.2K.Remastered.GBR.BluRay.1080p.x264.DTS.2Audios-CMCT.mkv
Format                                   : Matroska
Format version                           : Version 4
File size                                : 9.40 GiB
Duration                                 : 1 h 38 min
Overall bit rate                         : 13.7 Mb/s
Encoded date                             : UTC 2020-04-02 13:33:23
Writing application                      : mkvmerge v7.0.0 ('Where We Going') 32bit built on Jun  9 2014 15:08:34
Writing library                          : libebml v1.3.0 + libmatroska v1.4.1
Attachments                              : SimHei.ttf / cronospro.otf / STKaiti.ttf

Video
ID                                       : 1
Format                                   : AVC
Format/Info                              : Advanced Video Codec
Format profile                           : High@L4.1
Format settings                          : CABAC / 4 Ref Frames
Format settings, CABAC                   : Yes
Format settings, Reference frames        : 4 frames
Codec ID                                 : V_MPEG4/ISO/AVC
Duration                                 : 1 h 38 min
Bit rate                                 : 11.5 Mb/s
Width                                    : 1 920 pixels
Height                                   : 1 080 pixels
Display aspect ratio                     : 16:9
Frame rate mode                          : Constant
Frame rate                               : 23.976 (24000/1001) FPS
Color space                              : YUV
Chroma subsampling                       : 4:2:0
Bit depth                                : 8 bits
Scan type                                : Progressive
Bits/(Pixel*Frame)                       : 0.231
Stream size                              : 7.90 GiB (84%)
Title                                    : CMCT团队荣誉出品
Writing library                          : x264 core 142 r2431 ac76440
Encoding settings                        : cabac=1 / ref=4 / deblock=1:-3:-3 / analyse=0x3:0x133 / me=umh / subme=11 / psy=1 / psy_rd=1.00:0.00 / mixed_ref=1 / me_range=48 / chroma_me=1 / trellis=2 / 8x8dct=1 / cqm=0 / deadzone=21,11 / fast_pskip=0 / chroma_qp_offset=-2 / threads=18 / lookahead_threads=3 / sliced_threads=0 / nr=0 / decimate=1 / interlaced=0 / bluray_compat=0 / constrained_intra=0 / bframes=8 / b_pyramid=2 / b_adapt=2 / b_bias=0 / direct=1 / weightb=1 / open_gop=0 / weightp=2 / keyint=240 / keyint_min=22 / scenecut=40 / intra_refresh=0 / rc_lookahead=60 / rc=2pass / mbtree=1 / bitrate=11500 / ratetol=1.0 / qcomp=0.60 / qpmin=0 / qpmax=69 / qpstep=4 / cplxblur=20.0 / qblur=0.5 / vbv_maxrate=50000 / vbv_bufsize=50000 / nal_hrd=none / filler=0 / ip_ratio=1.40 / aq=1:1.00
Language                                 : Chinese
Default                                  : Yes
Forced                                   : No

Audio #1
ID                                       : 2
Format                                   : DTS ES
Format/Info                              : Digital Theater Systems
Commercial name                          : DTS-ES Matrix
Codec ID                                 : A_DTS
Duration                                 : 1 h 38 min
Bit rate mode                            : Constant
Bit rate                                 : 1 509 kb/s
Channel(s)                               : 6 channels
Channel(s)_Original                      : 7 channels
ChannelLayout_Original                   : C L R Ls Rs Cs LFE
Sampling rate                            : 48.0 kHz
Frame rate                               : 93.750 FPS (512 SPF)
Bit depth                                : 24 bits
Compression mode                         : Lossy
Stream size                              : 1.04 GiB (11%)
Title                                    : 粤语
Language                                 : Chinese
Default                                  : Yes
Forced                                   : No

Audio #2
ID                                       : 3
Format                                   : AC-3
Format/Info                              : Audio Coding 3
Commercial name                          : Dolby Digital
Codec ID                                 : A_AC3
Duration                                 : 1 h 38 min
Bit rate mode                            : Constant
Bit rate                                 : 640 kb/s
Channel(s)                               : 6 channels
Channel layout                           : L R C LFE Ls Rs
Sampling rate                            : 48.0 kHz
Frame rate                               : 31.250 FPS (1536 SPF)
Compression mode                         : Lossy
Stream size                              : 450 MiB (5%)
Title                                    : 国语
Language                                 : Chinese
Service kind                             : Complete Main
Default                                  : No
Forced                                   : No

Text #1
ID                                       : 4
Format                                   : ASS
Codec ID                                 : S_TEXT/ASS
Codec ID/Info                            : Advanced Sub Station Alpha
Duration                                 : 1 h 38 min
Bit rate                                 : 60 b/s
Count of elements                        : 971
Compression mode                         : Lossless
Stream size                              : 43.6 KiB (0%)
Title                                    : 简体ASS
Language                                 : Chinese
Default                                  : Yes
Forced                                   : No

Text #2
ID                                       : 5
Format                                   : ASS
Codec ID                                 : S_TEXT/ASS
Codec ID/Info                            : Advanced Sub Station Alpha
Duration                                 : 1 h 37 min
Bit rate                                 : 60 b/s
Count of elements                        : 962
Compression mode                         : Lossless
Stream size                              : 43.0 KiB (0%)
Title                                    : 繁体ASS
Language                                 : Chinese
Default                                  : No
Forced                                   : No

Text #3
ID                                       : 6
Format                                   : UTF-8
Codec ID                                 : S_TEXT/UTF8
Codec ID/Info                            : UTF-8 Plain Text
Duration                                 : 1 h 38 min
Bit rate                                 : 32 b/s
Count of elements                        : 971
Stream size                              : 23.6 KiB (0%)
Title                                    : 简体SRT
Language                                 : Chinese
Default                                  : No
Forced                                   : No

Text #4
ID                                       : 7
Format                                   : UTF-8
Codec ID                                 : S_TEXT/UTF8
Codec ID/Info                            : UTF-8 Plain Text
Duration                                 : 1 h 37 min
Bit rate                                 : 32 b/s
Count of elements                        : 962
Stream size                              : 23.2 KiB (0%)
Title                                    : 繁体SRT
Language                                 : Chinese
Default                                  : No
Forced                                   : No



游客,如果您要查看本帖隐藏内容请回复


本帖子中包含更多资源

您需要 登录 才可以下载或查看,没有帐号?立即注册

x
魔爪论坛http://www.91mz.cc,一个有情怀的电影交流论坛
回复

使用道具 举报

签到天数: 80 天

[LV.6]常住居民II

0

主题

1246

帖子

95

积分

列兵

Rank: 2

积分
95
发表于 2020-4-6 23:05:32 | 显示全部楼层
高丽虹很有韵味
魔爪论坛http://www.91mz.cc,一个有情怀的电影交流论坛
回复

使用道具 举报

签到天数: 15 天

[LV.4]偶尔看看III

0

主题

310

帖子

69

积分

列兵

Rank: 2

积分
69
发表于 2020-4-6 23:13:05 | 显示全部楼层
老电影不错!谢谢分享!
魔爪论坛http://www.91mz.cc,一个有情怀的电影交流论坛
回复

使用道具 举报

签到天数: 41 天

[LV.5]常住居民I

0

主题

544

帖子

73

积分

列兵

Rank: 2

积分
73
发表于 2020-4-6 23:22:41 | 显示全部楼层
老电影,感谢分享
魔爪论坛http://www.91mz.cc,一个有情怀的电影交流论坛
回复

使用道具 举报

签到天数: 62 天

[LV.6]常住居民II

60

主题

319

帖子

182

积分

士官

Rank: 3Rank: 3

积分
182
发表于 2020-4-6 23:23:21 | 显示全部楼层
老牌港式动作片,必须大大支持的,楼主真好
真我风采
回复

使用道具 举报

该用户从未签到

0

主题

861

帖子

21

积分

新兵

Rank: 1

积分
21
发表于 2020-4-6 23:26:19 | 显示全部楼层
农村环境好  有花也有草
魔爪论坛http://www.91mz.cc,一个有情怀的电影交流论坛
回复

使用道具 举报

签到天数: 31 天

[LV.5]常住居民I

0

主题

114

帖子

26

积分

新兵

Rank: 1

积分
26
发表于 2020-4-6 23:28:32 | 显示全部楼层
看演员表就特别震撼了~
魔爪论坛http://www.91mz.cc,一个有情怀的电影交流论坛
回复

使用道具 举报

签到天数: 48 天

[LV.5]常住居民I

0

主题

34

帖子

25

积分

新兵

Rank: 1

积分
25
发表于 2020-4-6 23:39:51 | 显示全部楼层
可以收藏了!
魔爪论坛http://www.91mz.cc,一个有情怀的电影交流论坛
回复

使用道具 举报

签到天数: 8 天

[LV.3]偶尔看看II

0

主题

26

帖子

4

积分

新兵

Rank: 1

积分
4
发表于 2020-4-6 23:46:59 | 显示全部楼层
这个快一点 顶了
魔爪论坛http://www.91mz.cc,一个有情怀的电影交流论坛
回复

使用道具 举报

签到天数: 35 天

[LV.5]常住居民I

0

主题

41

帖子

19

积分

新兵

Rank: 1

积分
19
发表于 2020-4-7 00:06:01 | 显示全部楼层

这个快一点 顶了
魔爪论坛http://www.91mz.cc,一个有情怀的电影交流论坛
回复

使用道具 举报

您需要登录后才可以回帖 登录 | 立即注册

本版积分规则

QQ|Archiver|手机版|小黑屋|魔爪论坛

GMT+8, 2020-5-25 16:58 , Processed in 0.109361 second(s), 23 queries , Gzip On.

Powered by Discuz! X3.4

Copyright © 2001-2020, Tencent Cloud.

快速回复 返回顶部 返回列表